Filecrypt zeigt vereinzelt Files als "n/a". Die Downloads sind trotzdem komplett.

DNS SERVER AENDERNum der staatlichen Zensur zu umgehen. Sollten wir von eurem Provider geseprrt werden, nutzt den TOR BROWSER oder ändert euren DNS SERVER.

Filmwünsche können bei uns im Forum abgegeben werden

Wir Speichern Nicht




 
 
 
Top Releases
Shirkers.2018.German.DL.Doku...
Shirkers.2018.German.DL.Doku...
The.Equalizer.2.German.DL.AC...
The.Equalizer.2.German.DL.AC...
In.den.Gaengen.German.1080p....
Gun.City.2018.German.720p.WE...
Gun.City.2018.German.1080p.W...
In.den.Gaengen.German.720p.B...
Paterson.2016.German.AC3.108...
Lion.Der.lange.Weg.nach.Haus...

Cinedubs
Der.Affront.2017.GERMAN.AC3....
Der.Affront.2017.GERMAN.AC3....
Meg.German.DL.AC3.Dubbed.108...
Meg.German.DL.AC3.Dubbed.720...
The.Equalizer.2.German.DL.AC...
The.Equalizer.2.German.DL.AC...
The.Nun.German.DL.AC3.Dubbed...
The.Nun.German.DL.AC3.Dubbed...
Christopher.Robin.2018.GERMA...
Christopher.Robin.2018.GERMA...

Neuerscheinungen 2017-18
Bo.und.der.Weihnachtsstern.2...
Bo.und.der.Weihnachtsstern.2...
The Fog 1980.MULTi.COMPLETE....
The.Matrix.Revolutions.2003....
The.Darkest.Minds.2018.COMPL...
The.Fog.Nebel.des.Grauens.19...
The.Fog.Nebel.des.Grauens.19...
Braveheart.1995.MULTi.COMPLE...
Revenge.of.the.Warrior.Tom.Y...
2001.Odyssee.im.Weltraum.200...

XXX
Lesbea.18.10.14.Sasha.Sparro...
LittleCapriceDreams.18.10.08...
MatureNL.18.04.27.Molly.Mara...
LANewGirl.18.09.16.Layla.Sho...
LoneMilf.18.10.15.Olivia.Blu...
LivingWithAPornstar.18.10.15...
Lustery.E141.Maria.And.Zee.R...
LarasPlayground.18.10.12.Cha...
MatureNL.18.04.13.Darcia.Lee...
LANewGirl.18.09.25.Ana.Model...
LANewGirl.18.09.11.Layla.Mod...
MatureNL.18.04.26.Artemia.An...
MassageRooms.18.10.17.Lady.B...
MatureNL.18.04.11.Krista.E.A...
LANewGirl.18.09.29.Ana.Sex.T...
LezBoxx.18.10.12.Violet.Pink...
LANewGirl.18.09.18.Skylar.Mo...
MassageRooms.18.10.13.Anya.K...
Lightbox.Vol.1.XXX.1080p.WEB...
MatureNL.18.04.12.Sissy.Neri...

3D
Deep.Kleine.Helden.der.Tiefs...
Deep.3D.2017.MULTI.COMPLETE....
Detective.Dee.und.die.Legend...
Detective.Dee.und.die.Legend...
Skyscraper.3D.German.DL.AC3....
Ant-Man.and.the.Wasp.2018.3D...
Jurassic.World.Das.gefallene...
Jurassic.World.Das.gefallene...
Best.of.3D.vol.10.-.12.GERMA...
Die.Biene.Maja.2.Die.Honigsp...
Sharknado.6.The.Last.One.3D....
Solo.A.Star.Wars.Story.3D.20...
Solo.A.Star.Wars.Story.3D.20...
Die.Biene.Maja.2.Die.Honigsp...
Avengers.Infinity.War.3D.201...

Old_Stuff
Species.IV.Das.Erwachen.2007...
Species.IV.Das.Erwachen.2007...
Hotel.Transsilvanien.2012.Ge...
The.Dead.2010.German.DL.1080...
The.Dead.2.India.2013.German...
Britney.Spears.Live.The.Femm...
Buffy.The.Vampire.Slayer.199...
IMAX.Ride.Around.The.World.2...
Schimanski.-.Duisburg.Ruhror...
Akte.X.S02.German.DTS.DL.108...
How.I.Met.Your.Mother.S02.Ge...
Akte.X.S01.German.DTS.DL.108...
Den.Himmel.gibts.echt.DL.108...
Vikings.S02.German.DL.1080p....
Be.Kind.Rewind.Abgedreht.200...

Filme
The.Fog.Nebel.des.Grauens.19...
Modern.Family.S09.GERMAN.DUB...
Modern.Family.S09.GERMAN.DUB...
The.Paperboy.2012.German.DL....
The.Patrol.2013.German.DL.10...
Die.68er.-.Wir.waren.die.Zuk...
Schuften.bis.zum.Umfallen.DH...
Der.zweite.Weltkrieg.Krieg.d...
The.Painter.Dein.Blut.ist.se...
The.Package.Killer.Games.201...
The.Pact.2.Es.ist.noch.nicht...
The.Pact.2012.German.DL.1080...
Maennertag.2016.German.AC3.1...
Jin.Roh.Die.Wolfsbrigade.199...
Die.7.Macht.The.Legend.of.Wi...
Ray.Donovan.S06.GERMAN.DUBBE...
Ray.Donovan.S06.GERMAN.DUBBE...
2001.Odyssee.im.Weltraum.196...
The.Pacific.2010.DISC1.Germa...
The.Pacific.2010.DISC2.Germa...
The.Pacific.2010.DISC3.Germa...
The.Pacific.2010.DISC4.Germa...
The.Pacific.2010.DISC5.Germa...
Er.steht.einfach.nicht.auf.D...

 
 
Modern.Family.S09.GERMAN.DUBBED.DL.720p.WebHD.x264-TVP

Jahr: 2017
Genre: Komödie
Sprache: Deutsch AC3 | Englisch AC3
Laufzeit: 21min je Folge
Bitrate: 6400 Kbps
Format: MKV
Größe: 1 GB je Folge
Release:

Beschreibung:

Im Mittelpunkt der preisgekrönten US-Comedyserie Modern Family steht der Pritchett-Dunphy-Delgado-Tucker-Familienclan. Wie der Titel schon besagt, dreht sich die Serie um eine moderne Familie, die ein buntes Gemengelage von Generationen, Ethnien und Hetero- wie Homosexuellen ist. Familienoberhaupt Jay Pritchett (Ed O'Neill) ist in zweiter Ehe mit der um Jahrzehnte jüngeren Latina Gloria (Sofia Vergara) verheiratet. Bei ihnen lebt Glorias Sohn aus erster Ehe, der altkluge Manny (Rico Rodriguez). Gloria und Jay haben zudem seit der vierten Staffel einen gemeinsamen Sohn - Fulgencio Joseph. genannt Joe.

Jays Sohn aus erster Ehe, Mitchell (Jesse Tyler Ferguson), lebt mit seinem Partner Cameron (Eric Stonestreet) zusammen. Zusammen haben sie ein vietnamesisches Kind adoptiert, Lily (Aubrey Anderson-Emmons).

Jays Tochter Claire (Julie Bowen) ist ein Control-Freak, im Gegensatz zu ihrem Ehemann, dem „coolen Dad“ Phil Dunphy (Ty Burrell), der immer gut für verrückte Ideen ist. Claire und Phil haben drei Kinder: die hübsche aber einfältige Haley (Sarah Hyland), die kluge Alex (Ariel Winter) und den chaotischen Luke (Nolan Gould). ​

 

enthaltene Folgen:

Modern.Family.S09E01.Sonnenfinsternis.GERMAN.DUBBED.DL.720p.WebHD.x264-TVP NEU



General
Complete name                            : Modern.Family.S09E01.Sonnenfinsternis.GERMAN.DUBBED.DL.720p.WebHD.x264-TVP\tvp-modernfamily-s09e01-720p.mkv
Format                                   : Matroska
Format version                           : Version 2
File size                                : 1.04 GiB
Duration                                 : 20mn 44s
Overall bit rate                         : 7 192 Kbps
Movie name                               : Modern.Family.S09E01.Sonnenfinsternis.GERMAN.DUBBED.DL.720p.WebHD.x264-TVP
Encoded date                             : UTC 2018-11-01 19:41:31
Writing application                      : mkvmerge v5.6.0 ('Kenya Kane') built on May 28 2012 06:47:39
Writing library                          : libebml v1.2.2 + libmatroska v1.3.0

Video
ID                                       : 1
Format                                   : AVC
Format/Info                              : Advanced Video Codec
Format profile                           : High@L4.1
Format settings, CABAC                   : Yes
Format settings, ReFrames                : 9 frames
Codec ID                                 : V_MPEG4/ISO/AVC
Duration                                 : 20mn 44s
Bit rate                                 : 6 473 Kbps
Width                                    : 1 280 pixels
Height                                   : 720 pixels
Display aspect ratio                     : 16:9
Frame rate mode                          : Constant
Frame rate                               : 25.000 fps
Original frame rate                      : 23.976 fps
Color space                              : YUV
Chroma subsampling                       : 4:2:0
Bit depth                                : 8 bits
Scan type                                : Progressive
Bits/(Pixel*Frame)                       : 0.281
Stream size                              : 960 MiB (90%)
Title                                    : tvp-modernfamily-s09e01-720p
Writing library                          : x264 core 148 r2643 5c65704
Encoding settings                        : cabac=1 / ref=9 / deblock=1:-3:-3 / analyse=0x3:0x133 / me=umh / subme=11 / psy=1 / psy_rd=1.00:0.00 / mixed_ref=1 / me_range=32 / chroma_me=1 / trellis=2 / 8x8dct=1 / cqm=0 / deadzone=21,11 / fast_pskip=0 / chroma_qp_offset=-2 / threads=6 / lookahead_threads=1 / sliced_threads=0 / nr=0 / decimate=0 / interlaced=0 / bluray_compat=0 / constrained_intra=0 / bframes=8 / b_pyramid=2 / b_adapt=2 / b_bias=0 / direct=3 / weightb=1 / open_gop=0 / weightp=2 / keyint=250 / keyint_min=23 / scenecut=40 / intra_refresh=0 / rc=crf / mbtree=0 / crf=17.0 / qcomp=0.60 / qpmin=0 / qpmax=69 / qpstep=4 / ip_ratio=1.40 / pb_ratio=1.30 / aq=3:0.85
Language                                 : German
Default                                  : Yes
Forced                                   : Yes

Audio #1
ID                                       : 2
Format                                   : AC-3
Format/Info                              : Audio Coding 3
Mode extension                           : CM (complete main)
Format settings, Endianness              : Big
Codec ID                                 : A_AC3
Duration                                 : 20mn 44s
Bit rate mode                            : Constant
Bit rate                                 : 192 Kbps
Channel(s)                               : 2 channels
Channel positions                        : Front: L R
Sampling rate                            : 48.0 KHz
Bit depth                                : 16 bits
Compression mode                         : Lossy
Stream size                              : 28.5 MiB (3%)
Language                                 : German
Default                                  : Yes
Forced                                   : Yes

Audio #2
ID                                       : 3
Format                                   : AC-3
Format/Info                              : Audio Coding 3
Mode extension                           : CM (complete main)
Format settings, Endianness              : Big
Codec ID                                 : A_AC3
Duration                                 : 20mn 44s
Bit rate mode                            : Constant
Bit rate                                 : 384 Kbps
Channel(s)                               : 6 channels
Channel positions                        : Front: L C R, Side: L R, LFE
Sampling rate                            : 48.0 KHz
Bit depth                                : 16 bits
Compression mode                         : Lossy
Stream size                              : 57.0 MiB (5%)
Language                                 : English
Default                                  : No
Forced                                   : No



Download:
Share-Online.biz Share-Online.bizShare-Online.bizShare-Online.biz | Rapidgator.net Rapidgator.netRapidgator.netRapidgator.net
 

Kommentare