Lien 6: HD Vid VF | Essential Game Files | Комменты
 


 

Filecrypt zeigt vereinzelt Files als "n/a". Die Downloads sind trotzdem komplett.

DNS SERVER AENDERNum der staatlichen Zensur zu umgehen. Sollten wir von eurem Provider geseprrt werden, nutzt den TOR BROWSER oder ändert euren DNS SERVER.

Filmwünsche können bei uns im Forum abgegeben werden

Wir Speichern Nicht




 
 
 
Top Releases
In.den.Gaengen.2018.German.A...
Oceans.8.2018.MULTi.COMPLETE...
Outlaw.King.2018.German.DL.1...
Outlaw.King.2018.German.DL.7...
Ploetzlich.Papa.2016.German....
Gun.City.2018.German.AC3.108...
Ant.Man.and.the.Wasp.2018.Ge...
Ant.Man.and.the.Wasp.2018.Ge...
Ant.Man.and.the.Wasp.2018.Ge...
Star.Wars.Episode.VIII.Die.l...

Cinedubs
Predator.Upgrade.German.DL.A...
Predator.Upgrade.German.DL.A...
10×10.2018.German.AC3D.DL.1...
10×10.2018.German.AC3D.DL.7...
Sicario.2.German.DL.AC3.Dubb...
Sicario.2.German.DL.AC3.Dubb...
Hotel.Artemis.German.DL.AC3....
Hotel.Artemis.German.DL.AC3....
Mission.Impossible.Fallout.2...
Mission.Impossible.Fallout.2...

Neuerscheinungen 2017-18
Appgefahren.Alles.ist.moegli...
Bent.Korruption.kennt.keine....
Bent.Korruption.kennt.keine....
Cut.Shoot.Kill.2017.German.D...
Cut.Shoot.Kill.2017.German.7...
Rambo.2.Der.Auftrag.1985.MUL...
The.Boys.from.Brazil.1978.MU...
Rambo.III.1988.MULTI.COMPLET...
Rambo.First.Blood.1982.COMPL...
Dead.Men.2018.COMPLETE.BLURA...

XXX
Daring.Addiction.XXX.1080p.W...
Cheat.Beat.XXX.1080p.WEBRip....
Cheat.Beat.XXX.720p.WEBRip.M...
Daring.Addiction.XXX.720p.WE...
BustyArianna.18.07.05.Ariann...
BangBros18.18.10.30.Sophia.L...
Bang.RealTeens.18.10.29.Vina...
Babes.18.10.31.Ivy.Wolfe.Unm...
The.Game.XXX.1080p.WEBRip.MP...
TheLifeErotic.18.10.30.Lucy....
TonightsGirlfriend.18.10.31....
ATKGirlfriends.18.10.28.Khlo...
TwistysHard.18.10.31.Kimmy.G...
BustyArianna.18.07.23.Ariann...
BustyArianna.18.07.14.The.Ot...
The.Game.XXX.720p.WEBRip.MP4...
BustyArianna.18.07.29.Ariann...
ATKHairy.18.10.31.Andy.Moon....
AmateurCFNM.18.10.30.Ashley....
TheLifeErotic.18.10.28.Raisa...

3D
Die.Unglaublichen.2.3D.2018....
Die.Unglaublichen.2.2018.3D....
Die.Unglaublichen.2.2018.3D....
Sharknado.6.The.Last.One.3D....
Deep.Kleine.Helden.der.Tiefs...
Deep.3D.2017.MULTI.COMPLETE....
Detective.Dee.und.die.Legend...
Detective.Dee.und.die.Legend...
Skyscraper.3D.German.DL.AC3....
Ant-Man.and.the.Wasp.2018.3D...
Jurassic.World.Das.gefallene...
Jurassic.World.Das.gefallene...
Best.of.3D.vol.10.-.12.GERMA...
Die.Biene.Maja.2.Die.Honigsp...
Sharknado.6.The.Last.One.3D....

Old_Stuff
Detective.Dee.und.das.Geheim...
Detective.Dee.Und.Der.Fluch....
Ghost.Rider.Spirit.of.Vengea...
Species.IV.Das.Erwachen.2007...
Species.IV.Das.Erwachen.2007...
Hotel.Transsilvanien.2012.Ge...
The.Dead.2010.German.DL.1080...
The.Dead.2.India.2013.German...
Britney.Spears.Live.The.Femm...
Buffy.The.Vampire.Slayer.199...
IMAX.Ride.Around.The.World.2...
Schimanski.-.Duisburg.Ruhror...
Akte.X.S02.German.DTS.DL.108...
How.I.Met.Your.Mother.S02.Ge...
Akte.X.S01.German.DTS.DL.108...

Filme
The.Sinner.S02.COMPLETE.Germ...
The.Sinner.S02.COMPLETE.Germ...
Beat.S01.COMPLETE.German.DD+...
Beat.S01.COMPLETE.German.DD+...
Die.Simpsons.S29.GERMAN.DUBB...
iZombie.S04.German.DD51.Dubb...
iZombie.S04.German.DD51.Dubb...
Humans.S03.German.DD20.Dubbe...
Krypton.S01.German.DD51.Dubb...
The.Underdog.Knight.2008.Ger...
The.Undead.Strigoi.2009.Germ...
The.Twilight.Werewolf.2010.G...
The.TV.Set.2006.German.DL.10...
Suits.S01-S06.COMPLETE.Germa...
The.Zero.Hour.2010.German.10...
Matrix.Revolutions.USA.2003....
Formel.1.Saison.2018.GERMAN....
Shopaholic.Die.Schnaeppchenj...
Zulu.Dawn.Die.letzte.Offensi...
Das.Blutbiest.1968.German.DL...
Fight.Club.REMASTERED.1999.G...
42.Die.wahre.Geschichte.eine...
Revenge.Eine.gefaehrliche.Af...
Revenge.Eine.gefaehrliche.Af...

 
 
2001.Odyssee.im.Weltraum.Remastered.1968.German.AC3.DL.1080p.BluRay.x265-FuN

Jahr: 2001
Genre: Sci-Fi
Sprache: Deutsch AC3 | Englisch AC3
Laufzeit: 2h 28mn
Bitrate: 2 491 Kbps
Format: MKV
Größe: 2.59 GiB
Release:

Beschreibung:

Im Jahr 2001 entdecken Wissenschaftler auf dem Mond einen offenbar von intelligenten Lebewesen geschaffenen, schwarzen Monolithen, der Signale Richtung Jupiter aussendet. Daraufhin wird eine bemannte Expedition zum Jupiter entsandt, deren Kommando der Supercomputer HAL 9.000 führt. Im Laufe der Fahrt muß das menschliche Personal zur Kenntnis nehmen, daß der Computer mehr Eigenleben entwickelt hat, als jederman lieb sein kann.




Format                                   : Matroska
Format version                           : Version 4 / Version 2
File size                                : 2.59 GiB
Duration                                 : 2h 28mn
Overall bit rate                         : 2 491 Kbps
Encoded date                             : UTC 2018-11-02 18:58:40
Writing application                      : HandBrake 20180926214903-4981e11-master 2018092701
Writing library                          : Lavf58.12.100

Video
ID                                       : 1
Format                                   : HEVC
Format/Info                              : High Efficiency Video Coding
Format profile                           : Main@L4.0
Codec ID                                 : V_MPEGH/ISO/HEVC
Duration                                 : 2h 28mn
Bit rate                                 : 1 674 Kbps
Width                                    : 1 920 pixels
Height                                   : 872 pixels
Display aspect ratio                     : 2.2:1
Frame rate mode                          : Constant
Frame rate                               : 23.976 fps
Color space                              : YUV
Chroma subsampling                       : 4:2:0
Bit depth                                : 8 bits
Bits/(Pixel*Frame)                       : 0.042
Stream size                              : 1.74 GiB (67%)
Writing library                          : x265 2.8:[Windows][GCC 7.1.0][64 bit] 8bit+10bit+12bit
Encoding settings                        : cpuid=1111039 / frame-threads=3 / numa-pools=8 / wpp / no-pmode / no-pme / no-psnr / no-ssim / log-level=2 / input-csp=1 / input-res=1920x872 / interlace=0 / total-frames=0 / level-idc=0 / high-tier=1 / uhd-bd=0 / ref=3 / no-allow-non-conformance / no-repeat-headers / annexb / no-aud / no-hrd / info / hash=0 / no-temporal-layers / open-gop / min-keyint=24 / keyint=240 / gop-lookahead=0 / bframes=4 / b-adapt=2 / b-pyramid / bframe-bias=0 / rc-lookahead=20 / lookahead-slices=5 / scenecut=40 / radl=0 / no-intra-refresh / ctu=64 / min-cu-size=8 / no-rect / no-amp / max-tu-size=32 / tu-inter-depth=1 / tu-intra-depth=1 / limit-tu=0 / rdoq-level=0 / dynamic-rd=0.00 / no-ssim-rd / signhide / no-tskip / nr-intra=0 / nr-inter=0 / no-constrained-intra / no-strong-intra-smoothing / max-merge=2 / limit-refs=3 / no-limit-modes / me=1 / subme=2 / merange=57 / temporal-mvp / weightp / no-weightb / no-analyze-src-pics / deblock=0:0 / no-sao / no-sao-non-deblock / rd=3 / no-early-skip / rskip / no-fast-intra / no-tskip-fast / no-cu-lossless / no-b-intra / no-splitrd-skip / rdpenalty=0 / psy-rd=2.00 / psy-rdoq=0.00 / no-rd-refine / no-lossless / cbqpoffs=0 / crqpoffs=0 / rc=crf / crf=20.0 / qcomp=0.60 / qpstep=4 / stats-write=0 / stats-read=0 / ipratio=1.40 / pbratio=1.30 / aq-mode=1 / aq-strength=1.00 / cutree / zone-count=0 / no-strict-cbr / qg-size=32 / no-rc-grain / qpmax=69 / qpmin=0 / no-const-vbv / sar=1 / overscan=0 / videoformat=5 / range=0 / colorprim=1 / transfer=1 / colormatrix=1 / chromaloc=0 / display-window=0 / max-cll=0,0 / min-luma=0 / max-luma=255 / log2-max-poc-lsb=8 / vui-timing-info / vui-hrd-info / slices=1 / no-opt-qp-pps / no-opt-ref-list-length-pps / no-multi-pass-opt-rps / scenecut-bias=0.05 / no-opt-cu-delta-qp / no-aq-motion / no-hdr / no-hdr-opt / no-dhdr10-opt / no-idr-recovery-sei / analysis-reuse-level=5 / scale-factor=0 / refine-intra=0 / refine-inter=0 / refine-mv=0 / no-limit-sao / ctu-info=0 / no-lowpass-dct / refine-mv-type=0 / copy-pic=1 / max-ausize-factor=1.0 / no-dynamic-refine / no-single-sei
Default                                  : Yes
Forced                                   : No
DURATION                                 : 02:28:51.720000000

Audio #1
ID                                       : 2
Format                                   : AC-3
Format/Info                              : Audio Coding 3
Mode extension                           : CM (complete main)
Format settings, Endianness              : Big
Codec ID                                 : A_AC3
Duration                                 : 2h 28mn
Bit rate mode                            : Constant
Bit rate                                 : 384 Kbps
Channel(s)                               : 6 channels
Channel positions                        : Front: L C R, Side: L R, LFE
Sampling rate                            : 48.0 KHz
Bit depth                                : 16 bits
Compression mode                         : Lossy
Delay relative to video                  : -5ms
Stream size                              : 409 MiB (15%)
Title                                    : Surround
Language                                 : German
Default                                  : Yes
Forced                                   : No
DURATION                                 : 02:28:51.744000000

Audio #2
ID                                       : 3
Format                                   : AC-3
Format/Info                              : Audio Coding 3
Mode extension                           : CM (complete main)
Format settings, Endianness              : Big
Codec ID                                 : A_AC3
Duration                                 : 2h 28mn
Bit rate mode                            : Constant
Bit rate                                 : 384 Kbps
Channel(s)                               : 6 channels
Channel positions                        : Front: L C R, Side: L R, LFE
Sampling rate                            : 48.0 KHz
Bit depth                                : 16 bits
Compression mode                         : Lossy
Delay relative to video                  : -5ms
Stream size                              : 409 MiB (15%)
Title                                    : Surround
Language                                 : English
Default                                  : No
Forced                                   : No
DURATION                                 : 02:28:51.712000000



Download:
Share Online Share OnlineShare OnlineShare Online
 

Kommentare