Filecrypt zeigt vereinzelt Files als "n/a". Die Downloads sind trotzdem komplett.

DNS SERVER AENDERNum der staatlichen Zensur zu umgehen. Sollten wir von eurem Provider geseprrt werden, nutzt den TOR BROWSER oder ändert euren DNS SERVER.

Filmwünsche können bei uns im Forum abgegeben werden

Wir Speichern Nicht




 
 
 
Top Releases
I.Tonya.2017.German.AC3.1080...
Deine.Juliet.2018.German.DL....
Ideal.Home.2018.German.DL.10...
Ideal.Home.Ein.Vater.kommt.s...
Deine.Juliet.2018.German.DTS...
Deine.Juliet.2018.MULTi.COMP...
Ideal.Home.Ein.Vater.kommt.s...
Ideal.Home.Ein.Vater.kommt.s...
Cam.2018.German.AC3.DL.1080p...
Die.Frau.die.vorausgeht.Germ...

Cinedubs
Venom.2018.German.AC3D.5.1.D...
Venom.2018.German.AC3D.5.1.D...
Das.krumme.Haus.2017.GERMAN....
Das.krumme.Haus.2017.GERMAN....
I.Still.See.You.Sie.lassen.d...
I.Still.See.You.Sie.lassen.d...
Braven.2018.German.AC3D.DL.1...
Braven.2018.German.AC3D.DL.7...
Smallfoot.Ein.eisigartiges.A...
Smallfoot.Ein.eisigartiges.A...

Neuerscheinungen 2017-18
Gotti.A.Real.American.Godfat...
American.Romance.2016.German...
Comanche.Moon.S01.2008.MULTi...
Boar.2017.German.DL.1080p.Bl...
Robin.Hood.Ein.Leben.fuer.Ri...
Robert.3.The.Toymaker.2017.C...
Robert.3.The.Toymaker.2017.G...
Robert.3.The.Toymaker.2017.G...
Scorpion.King.5.Das.Buch.der...
The.Scorpion.King.5.Das.Buch...

XXX
SugarCookie.18.08.10.Marica....
WankItNow.17.12.01.Scarlett....
ProducersFun.17.11.26.Sierra...
WeFuckBlackGirls.18.11.26.Ki...
WankItNow.17.12.01.Eva.Watch...
Vixen.18.11.25.Danni.Rivers....
SexArt.18.11.25.Stefany.Moon...
Stunning18.18.11.26.Cira.Ner...
SugarCookie.18.08.20.Kira.Qu...
SpyFam.18.11.26.Alex.Blake.X...
ShesNew.18.11.25.River.Fox.A...
ProducersFun.17.11.17.Zaya.C...
WankItNow.17.12.02.Sophia.Sm...
ScamAngels.18.11.25.Bailey.B...
Twistys.18.11.26.Eliza.Ibarr...
Spizoo.18.11.26.Daisy.Stone....
RKPrime.18.11.26.Karmen.Karm...
SweetheartVideo.18.11.26.Sov...
Submissived.18.11.26.Jezebet...
TheLifeErotic.18.11.25.Liz.R...

3D
The.Art.of.Flight.3D.2011.Ge...
The.End.Of.The.World.3D.2010...
The.First.Avenger.Civil.War....
Die.Unglaublichen.2.2018.3D....
Skyscraper.3D.2018.MULTi.COM...
Ant-Man.And.The.Wasp.3D.2018...
Ant.Man.and.the.Wasp.3D.2018...
Die.Unglaublichen.2.3D.2018....
Die.Unglaublichen.2.2018.3D....
Die.Unglaublichen.2.2018.3D....
Sharknado.6.The.Last.One.3D....
Deep.Kleine.Helden.der.Tiefs...
Deep.3D.2017.MULTI.COMPLETE....
Detective.Dee.und.die.Legend...
Detective.Dee.und.die.Legend...

Old_Stuff
Akte.X.S04.German.DTS.DL.108...
Akte.X.S03.German.DTS.DL.108...
Dunkirk.1958.COMPLETE.BLURAY...
Das.Wunder.von.Manhattan.199...
The.Amazing.Spiderman.2.Rise...
Rise.of.the.Predator.2014.Ge...
Detective.Dee.und.das.Geheim...
Detective.Dee.Und.Der.Fluch....
Ghost.Rider.Spirit.of.Vengea...
Species.IV.Das.Erwachen.2007...
Species.IV.Das.Erwachen.2007...
Hotel.Transsilvanien.2012.Ge...
The.Dead.2010.German.DL.1080...
The.Dead.2.India.2013.German...
Britney.Spears.Live.The.Femm...

Filme
Boar.2017.German.DL.1080p.Bl...
Zwei.vom.alten.Schlag.2013.G...
Ouija.Seance.The.Final.Game....
Arrow.S06D01-4.MULTi.COMPLET...
Barry.Seal.Only.in.America.2...
Barry.Seal.Only.in.America.2...
4.Blocks.S02D01+2.GERMAN.COM...
The.Raid.2011.German.1080p.B...
Christiane.F.Wir.Kinder.vom....
Frankensteins.Sohn.1939.Germ...
June.2015.German.DL.1080p.Bl...
So.High.2001.German.AC3D.DL....
Penelope.2006.German.DL.AC3....
Freejack.Geisel.der.Zukunft....
Terminal.Rache.war.nie.schoe...
Kingpin.1996.EXTENDED.German...
Bob.der.Butler.2005.German.A...
Ein.Herz.und.eine.Kanone.-.G...
Octagon.Die.Rache.der.Ninja....
Im.Jahr.des.Drachen.1985.Ger...
I.Am.Your.Father.2015.AC3.DO...
Ich.glaub.mich.knutscht.ein....
Not.Fade.Away.2012.German.AC...
The.Marine.6.Close.Quarters....

 
 
Ouija.Seance.The.Final.Game.2018.German.DTS.DL.1080p.BluRay.x265-SiCKNOTE

Jahr: 2018
Genre: Horror
Sprache: Deutsch DTS | Englisch DTS
Laufzeit: 1h 24mn
Bitrate: 4 683 Kbps
Format: MKV
Größe: 2.78 GiB
Release:

Beschreibung:

Die US-Studentin Sarah (Katharina) studiert in Italien und will kurz vor dem Ende ihres Studiums mit ihren Freunden Barbara, Guillaume und Rico ein paar entspannende Tage in einer abgelegenen Villa verbringen, die Sie von ihrer Großmutter mütterlicherseits geerbt hat. Die einsam gelegene, wunderschöne, alte Villa steht fernab jeglicher Großstadt mitten in der Natur. Kaum im Haus angekommen, entdecken sie auf dem Dachboden ein uraltes Ouija-Brett. und können der Versuchung nicht widerstehen, die Geister ihrer Vorfahren damit anzurufen. Doch anstelle eine Verbindung in Jenseits zu bekommen, wecken sie eine uralte dämonische Kraft, die mit den verborgenen Geheimnissen der Villa verbunden war. Um den heraufbeschworenen Dämon wieder zurück in seine Hölle zu schicken, müssen die Freunde sich nun ihren dunkelsten Ängsten und Albträumen stellen.



Complete name                            : sicknote-ouija.seance-x265.mkv
Format                                   : Matroska
Format version                           : Version 2
File size                                : 2.78 GiB
Duration                                 : 1h 24mn
Overall bit rate                         : 4 683 Kbps
Encoded date                             : UTC 2018-12-05 16:15:51
Writing application                      : mkvmerge v24.0.0 ('Beyond The Pale') 64-bit
Writing library                          : libebml v1.3.6 + libmatroska v1.4.9
DURATION                                 : 01:24:50.987000000
NUMBER_OF_FRAMES                         : 477280
NUMBER_OF_BYTES                          : 960287360
_STATISTICS_WRITING_APP                  : mkvmerge v24.0.0 ('Beyond The Pale') 64-bit
_STATISTICS_WRITING_DATE_UTC             : 2018-12-05 16:15:51
_STATISTICS_TAGS                         : BPS DURATION NUMBER_OF_FRAMES NUMBER_OF_BYTES

Video
ID                                       : 1
Format                                   : HEVC
Format/Info                              : High Efficiency Video Coding
Format profile                           : Main@L4.0
Codec ID                                 : V_MPEGH/ISO/HEVC
Duration                                 : 1h 24mn
Bit rate                                 : 1 572 Kbps
Width                                    : 1 920 pixels
Height                                   : 804 pixels
Display aspect ratio                     : 2.40:1
Frame rate mode                          : Constant
Frame rate                               : 24.000 fps
Color space                              : YUV
Chroma subsampling                       : 4:2:0
Bit depth                                : 8 bits
Bits/(Pixel*Frame)                       : 0.042
Stream size                              : 954 MiB (34%)
Writing library                          : x265 2.8+1-478bfe2b7673:[Windows][GCC 7.3.0][64 bit] 8bit+10bit+12bit
Encoding settings                        : cpuid=1111039 / frame-threads=16 / numa-pools=16 / wpp / no-pmode / no-pme / no-psnr / no-ssim / log-level=2 / input-csp=1 / input-res=1920x804 / interlace=0 / total-frames=122183 / level-idc=0 / high-tier=1 / uhd-bd=0 / ref=4 / no-allow-non-conformance / no-repeat-headers / annexb / no-aud / no-hrd / info / hash=0 / no-temporal-layers / open-gop / min-keyint=24 / keyint=250 / gop-lookahead=0 / bframes=4 / b-adapt=2 / b-pyramid / bframe-bias=0 / rc-lookahead=25 / lookahead-slices=4 / scenecut=40 / radl=0 / no-intra-refresh / ctu=64 / min-cu-size=8 / rect / no-amp / max-tu-size=32 / tu-inter-depth=1 / tu-intra-depth=1 / limit-tu=0 / rdoq-level=2 / dynamic-rd=0.00 / no-ssim-rd / signhide / no-tskip / nr-intra=0 / nr-inter=0 / no-constrained-intra / strong-intra-smoothing / max-merge=3 / limit-refs=3 / limit-modes / me=3 / subme=3 / merange=57 / temporal-mvp / weightp / no-weightb / no-analyze-src-pics / deblock=0:0 / sao / no-sao-non-deblock / rd=4 / no-early-skip / rskip / no-fast-intra / no-tskip-fast / no-cu-lossless / no-b-intra / no-splitrd-skip / rdpenalty=0 / psy-rd=2.00 / psy-rdoq=1.00 / no-rd-refine / no-lossless / cbqpoffs=0 / crqpoffs=0 / rc=crf / crf=19.9 / qcomp=0.60 / qpstep=4 / stats-write=0 / stats-read=0 / ipratio=1.40 / pbratio=1.30 / aq-mode=1 / aq-strength=1.00 / cutree / zone-count=0 / no-strict-cbr / qg-size=32 / no-rc-grain / qpmax=69 / qpmin=0 / no-const-vbv / sar=1 / overscan=0 / videoformat=5 / range=0 / colorprim=2 / transfer=2 / colormatrix=2 / chromaloc=0 / display-window=0 / max-cll=0,0 / min-luma=0 / max-luma=255 / log2-max-poc-lsb=8 / vui-timing-info / vui-hrd-info / slices=1 / no-opt-qp-pps / no-opt-ref-list-length-pps / no-multi-pass-opt-rps / scenecut-bias=0.05 / no-opt-cu-delta-qp / no-aq-motion / no-hdr / no-hdr-opt / no-dhdr10-opt / no-idr-recovery-sei / analysis-reuse-level=5 / scale-factor=0 / refine-intra=0 / refine-inter=0 / refine-mv=0 / no-limit-sao / ctu-info=0 / no-lowpass-dct / refine-mv-type=0 / copy-pic=1 / max-ausize-factor=1.0 / no-dynamic-refine / no-single-sei
Default                                  : Yes
Forced                                   : No

Audio #1
ID                                       : 2
Format                                   : DTS
Format/Info                              : Digital Theater Systems
Mode                                     : 16
Format settings, Endianness              : Big
Codec ID                                 : A_DTS
Duration                                 : 1h 24mn
Bit rate mode                            : Constant
Bit rate                                 : 1 509 Kbps
Channel(s)                               : 6 channels
Channel positions                        : Front: L C R, Side: L R, LFE
Sampling rate                            : 48.0 KHz
Bit depth                                : 24 bits
Compression mode                         : Lossy
Stream size                              : 916 MiB (32%)
Language                                 : German
Default                                  : Yes
Forced                                   : No

Audio #2
ID                                       : 3
Format                                   : DTS
Format/Info                              : Digital Theater Systems
Mode                                     : 16
Format settings, Endianness              : Big
Codec ID                                 : A_DTS
Duration                                 : 1h 24mn
Bit rate mode                            : Constant
Bit rate                                 : 1 509 Kbps
Channel(s)                               : 6 channels
Channel positions                        : Front: L C R, Side: L R, LFE
Sampling rate                            : 48.0 KHz
Bit depth                                : 24 bits
Compression mode                         : Lossy
Stream size                              : 916 MiB (32%)
Language                                 : English
Default                                  : No
Forced                                   : No


Download:
Share Online Share OnlineShare OnlineShare Online
 

Kommentare